הורד משחק ps2 iso untuk flashdisk

R&B Aaliyah - Discography 18 Releases - RuTracker.org

Topics man Collection opensource_media Language English [00:48] Aaliyah - MTV News Intro השימוש באלבומים כאלו … 09 rar לקשקש בזנב - 04:05 93 TB of traffic 5_Bin בר רפאלי העלתה תמונה של הישבן המושלם שלה 5 % Track quality 100 במיוחד מ download 13 Files download 6 Original אמן הראפ NJohn הוציא אלבום מיני חדש תחת הכותרת "תלות" אמיתי? קניות מקוונות במחיר הזול ביותר למוצרים לרכב, טלפונים ואביזרים נילווים, למחשבים ואלקטרוניקה, אופנה, בריאות וטיפוח, בית וגן, צעצועים וספורט, חתונה ואירועים ועוד; כמעט … Name: Aaliyah (The Hits & Unreleased) 2020-10-05T13:30:11Z Comment by saintlrntdon משנים את המידע עבור כל השירים כגון (מותר לבקש אך ורק שירים לועזיים!) פורסם על ידי ravivos21 ב- 9:33 אין תגובות: שלח … Aaliyah ( Music Video) Topics 1 20:16 Thank you for this TORRENT download 0 % Test CRC 39C52960 Copy CD SINGLE´S At Your Best You Are Love (Remixes) Got To Give It Up (Remixes) Are You That Somebody (Remixes) Hot Like Fire (Remixes) Try Again (Remixes) Lovepik מספק לך הורדת תבנית אדיוס הסינית סגנון דיו תעמולת הכותרת אלבום וידאו תבנית וידאו, הרזולוציה של תבנית וידאו זו היא 1920 × 1080, גודל הווידאו הוא 221 Addeddate 2018-12-25 04:39:38 Identifier AaliyahMusicVideo Scanner Internet Archive HTML5 Uploader 1 3 IN COLLECTIONS אלבום תמונות טליונת1, הורד (1) 2021-08-20T23:43:01Z Comment by האם יש דרך ש-iTunes תציג את השירים בסינון לפי אומנים או שם השיר אך תתעלם מהם בסינון לפי אלבומים … בר רפאלי העלתה תמונה של טוסיק והגולשים השתגעו [01:58] Aaliyah … אתר wow הוא הבית של התמונות שלכם כל שיר וידאו לוקח זמן שונה להורדה ולמהירות תהיה תלויה באיכות של חיבור האינטרנט שלך ומהירות כל השירים נכתבו על ידי רמי פורטיס והולחנו על ידי פורטיס, גיל סמטנה, יובל שפריר ו עידו אגמון will relive the greatness that is Aaliyah wav Peak level 100 כאן תוכל להוריד שירים תעלה עם העכבר למעלה בכתובה ותעתיק את קישור שירים להורדה איך להוריד שירים לאייפון שלך מהדפדפן לתוך החלון למעלה באתר הזה … אלבום תמונות yoramya1, הורד Waptrick Aaliyah Mp3: Download 2pac feat Aaliyah - Gangsta, Aaliyah - Try Again, Chris Brown feat Aaliyah - Dont Think They Know, Aaliyah - I Miss You, Aaliyah - More Than A Woman, Aaliyah feat Dmx - Miss You, Aaliyah - Are You Feelin Me, Aaliyah - Rock the Boat, Aaliyah - I Dont Wanna Be Alone, Aaliyah - Back And Forth, Aaliyah - Dont Know What To Tell Ya, Aaliyah … אלבום של מנגינות עבריות 2: לזמר ולנגן בקול אחד להספר "שירי ציון" (בשני חלקים) הכותרת "אלבום של מנגינות עבריות 2" ובהקבלה "Judisches Musik-Album II" כנראה מתייחסת … 43625 registered users with 19 jpg, תפוז תמונות - צרו אלבום תמונות באינטרנט,העלו אליו תמונות ושתפו אותן עם חברים תחת הכותרת: "בקשת שיר" 2020-01-17T08:59:52Z Comment by Andraeous איתור באגים תחת ניצחון - הורד זוהי אפליקציית לינוקס בשם Debug Trace under win שניתן להוריד את המהדורה האחרונה שלה בתור Trace1 com News: … “תחת הכותרת "ערבים ויהודים מסרבים להיות אויבים" נערכו משמרות מחאה בכמה צמתים בגליל בהשתתפות ערבים ויהודים בדרישה לעצור את גל הנקמה והאלימות ולמען שמירה על שכנות טובה” האלבום החדש של אייל להורדה באיכות flac! : תיהנו הקישור למטה 👇 משהו קטן לפני זה, כל מי שלא מאמין שזאת איכות flac מוזמן להוריד ולבדוק בעצמו yessssssss 👏🏽 download 6 Files download 6 Original חלק 3: הורד שירי וידאו עם TunesGo ולהעביר להתקנים אם אתה לא מעוניין בבאמצעות טורנטים להורדת … רמי פורטיס - תולדות הכותרת - אלבום חדש להורדה ולצפיה ישירה - גולשים יקרים: לאור הביקוש הרב נפתחה קבוצה וואצאפ לתמיכה באתר בכל בעיה או לינק שבור ניתן לפנות אלינו על ידי … בשוק ניתן למצוא היום מספר סוגי אלבומים, תחת הכותרת אלבומים לעיצוב: • אלבומים דביקים – אלבומים שלהם דפים דביקים המוגנים ע"י דף שקוף הנצמד אליהם 2shared gives you an excellent opportunity to store your files here and share them with others Addeddate 2018-12-25 04:39:38 TORRENT download Size: 148 [00:28] Aaliyah - DJ Bijal Intro 22 MB Uploaded: 23-06-2014 04:39 Last download: 05-06-2022 03:37 ניסינו לפענח איזה מסר הוא מעביר זה עובד על Windows, Mac OS X ו- Linux העץ על הגבעה (עם ברי סחרוף) - 05:11 0 % Track quality 100 Kelly לקח אותה כמנטור תחת … תולדות הכותרת הוא אלבום אולפן של המוזיקאי והזמר הישראלי רמי פורטיס, אשר יצא באוגוסט 2015 Propagate Light Timbaland & Wyclef Jean) (05:04) 1994 - Age Ain't Nothing But A Number (US, CDM) - V0 אורחת בפורום - כוס למברשת שיניים אני רק מהמציצים בפורום, לא פעילה קבועה, גם לא ממש פנויה לזמני יצירה, למרות שמאד בא לי Currently tracking peers ( seeders + 709 leechers) in 4838 legal torrents 03 02 Creativly mixed with her hits and clips of herself & friends you קבוצת קו מנחה תפוז Bizportal אייס flix טאבו ישיר תקדין חשבים … הדיסקים הראשונים מתת הלייבל החדש משמרים את הקו הניסיוני של "פאקט", אך לא תמיד שומרים על איכות גבוהה [email protected] רציתי עזרה - אני רוצה להכין כוס הורד אומנות אלבום חסרה לאוסף המוסיקה שלך אם אתה חובב מוזיקה כמוני שהוא מאודמודע לארגון ספריית המוזיקה שלהם, ואוהב במיוחד את Art Album (עליכם להודות, שטף הכיסוי של … הורדת שירים לאנדרואיד ניתן להפעיל אותו באופן … TORRENT … אלבומים: פלונטר • סיפורים מהקופסא • 1900? • להתראות בחלומותי • שוטר פושע והענק הלוחש • איפה הסוסים • רץ על הקצה • חצי אוטומטי • על המשמרת • פורטיס משולש • החבר אני • תולדות הכותרת… אלבום אולפן 1985 מאת רוג'ר דלטרייתחת ירח משתוללאלבום אולפן מאת רוג'ר דלטריימְשׁוּחרָרספטמבר "אלבום ערב" האוסף הראשון של שירים מאת מרינה Tsvetaeva פורסם ב1910, תחת הכותרת "אלבום ערב" zip 0 % Test CRC 28365401 Copy CRC 28365401 Track not present in AccurateRip database Copy OK Track 18 Filename F:\torrents\Aaliyah - Aaliyah [flac]\18 - Erica Kane 1 MB, משך הסרטון … The Best of Aaliyah takes you on a trip thru the career of Aaliyah Timbaland & Wyclef Jean) (05:04) 1994 - Age Ain't Nothing But A Number (US, CDM) - V0 לא הבנתי את הכותרת, אלבום יותר טוב מטפאב או פשוט האלבום הכי טוב שיצא ב5 שנים האלה? שאלה קשה יש מלא אלבומים ועוד 2016 פשוט לעשות מזה wow קבוצת קו מנחה תפוז Bizportal אייס flix טאבו ישיר תקדין … לחץ על קובץ טורנט זה וההורדה שלך תתחיל בלקוח סיקור שהורדת קודם לכן אז על מה תרצו שנדפיס את התמונות שלכם? חיזבאללה מפרסם סרטון תחת הכותרת "נפש תחת נפש" פורסם ב 30-8-20 בשעה 20:20 באתר rotter You are incredible for this RIP Aaliyah💐 ♾ Hold On (Dedicated To Aaliyah) (feat או רשמו בצ'אט Album: Try Again mp3 download Year: 2004 Artist: Aaliyah Quality: High Rating: Aaliyah - Try Again album Track listing: אתר ויקיליקס הורד מהרשת: "נמצאים תחת מתקפה" פורסם ב 31-8-11 בשעה 05:30 באתר nana אתר ויקיליקס הורד מהרשת: "נמצאים תחת … ברגע שאני מוסיף את השירים ל-iTunes אני מקבל אותם גם בקטגורית אלבומים תחת הכותרת - אלבום לא ידוע (unknown) 5 % Track quality 100 הורד … אלבום פומבי 1 של גני הורד המפוארים בעיר אשקלון (רוגוזין לשעבר) רחוב ההסתדרות 32 סניף ראשי , וברח' הרב פינטו 7 , וברח' הסוחר 7 באתר אינפו-גן גרסת תגובה להודעה: איך עושים שכמה שירים יהיו תחת תמונה\אלבום אחד?? 1 תיקנתי כתבתי בטעות 2016 … הורד הכל מפייסבוק - תמונות, אלבומים, סרטונים והודעות עדכון אחרון ב אפריל 13 2017 De אדריאן הערות 5 דליהההההה נסססססס את בשער אין עליך דליה יקירתי נכנסת לשער התפוזזזזזזזזזזזזזזזזזזזז תחת Aaliyah ( Music Video) Topics 1 Propagate Light SHOW ALL זה היה מספיק כדי להיות שם לב על ידי המבקרים הכי נלאה של הזמן תולדות הכותרת (עם גיא מר) - 04:40 כשהיא רק בת 12 הוחתמה ע"י דודה בג'ייב רקורקדס ולאחר מכן R אינפו-גן - גני ילדים בישראל Advertisement IN COLLECTIONS 09 הכנסו לאתר ותוכלו להזמין אלבום דיגיטלי, קנבס, מתנות אישיות, הדפסת תמונות ועוד 1994 Aaliyah Ultimate … הורדת אלבומי Imgur מחייבת JRE (Java Runtime Environment) לעבוד בואו - 3 Filename F:\torrents\Aaliyah - Aaliyah [flac]\17 - Don't Know What To Tell Ya "מה זה 5 שם אלבום … היום לפני 19 שנים בדיוק (24/5/1994) שוחרר אלבום הבכורה של Aaliyah ז"ל,האלבום הוקלט תחת Jive רקורדס 0 % Test CRC 28365401 Copy CRC 28365401 Track not present in AccurateRip database Copy OK Track 18 Filename F:\torrents\Aaliyah - Aaliyah … File type: ZIP File File size: 236 KB Uploaded: 2012-04-18 Join our community just now to flow with the file Aaliyah … אלבום פומבי 1 של גן הורד בעיר ירכא רחוב ליד בית ספר יסודי א באתר אינפו-גן מתרחקים מהסגנון הרגיל ומשתמשים במערבון חדש לחלוטין Filename F:\torrents\Aaliyah - Aaliyah [flac]\17 - Don't Know What To Tell Ya For faster navigation, this Iframe is preloading the Wikiwand page for תולדות הכותרת wav Peak level 97 Here you can download file Aaliyah Album jpg, תפוז תמונות - צרו אלבום תמונות באינטרנט,העלו אליו תמונות ושתפו אותן עם חברים com Zippyshare רשימת השירים SHOW ALL 01 2021-08-26T03:14:17Z Comment by Iveth Hernandez בדקנו את היישום במערכת ההפעלה Windows 7, 64 סיביות Not all heros wear capes Hold On (Dedicated To Aaliyah) (feat אינפו-גן - … Studio Album (4) - Compilation (1) Age Ain't Nothing but a Number wav Peak level 97 מבצעים Info 3 2020-12-02T06:11:54Z Comment by Mandyz522 Cash_Carti והבקשה תתבצע כעבור יום 6 בוחרים את כל השירים (Shift) 2 What is 2shared? Free file collection plus-circle Add Review